Forums
 
     

 

 

 


Go Back   Forums > Direct Download RapidPaid > Movies

Reply
 
Thread Tools Display Modes
Old 10-01-2017, 10:06 AM   #1
Linux
Administrator
 
Join Date: Jul 2017
Posts: 11,169
Default [RAMSAY FILMS] movie pack 720p WEB HD AVC AAC [PK]




Ramsay Films
25 Movies Pack.720p.WEB HD.AVC.AAC.[PK]





Code:
Format                                   : MPEG-4
Format profile                           : Base Media / Version 2
Codec ID                                 : mp42 (isom/mp42)
File size                                : 1.95 GiB
Duration                                 : 2 h 18 min
Overall bit rate mode                    : Variable
Overall bit rate                         : 2 007 kb/s
Encoded date                             : UTC 2017-04-28 21:21:04
Tagged date                              : UTC 2017-04-28 21:21:04
gsst                                     : 0
gstd                                     : 8334547

Video
ID                                       : 1
Format                                   : AVC
Format/Info                              : Advanced Video Codec
Format profile                           : Main@L3.1
Format settings, CABAC                   : Yes
Format settings, ReFrames                : 3 frames
Codec ID                                 : avc1
Codec ID/Info                            : Advanced Video Coding
Duration                                 : 2 h 18 min
Bit rate                                 : 1 878 kb/s
Width                                    : 1 280 pixels
Height                                   : 720 pixels
Display aspect ratio                     : 16:9
Frame rate mode                          : Constant
Frame rate                               : 25.000 FPS
Color space                              : YUV
Chroma subsampling                       : 4:2:0
Bit depth                                : 8 bits
Scan type                                : Progressive
Bits/(Pixel*Frame)                       : 0.082
Stream size                              : 1.82 GiB (94%)
Title                                    : ISO Media file produced by Google Inc.
Encoded date                             : UTC 2017-04-28 21:21:04
Tagged date                              : UTC 2017-04-28 21:21:04
Color range                              : Limited
Color primaries                          : BT.709
Transfer characteristics                 : BT.709
Matrix coefficients                      : BT.709

Audio
ID                                       : 2
Format                                   : AAC
Format/Info                              : Advanced Audio Codec
Format profile                           : LC
Codec ID                                 : 40
Duration                                 : 2 h 18 min
Bit rate mode                            : Variable
Bit rate                                 : 126 kb/s
Channel(s)                               : 2 channels
Channel positions                        : Front: L R
Sampling rate                            : 44.1 kHz
Frame rate                               : 43.066 FPS (1024 spf)
Compression mode                         : Lossy
Stream size                              : 125 MiB (6%)
Title                                    : ISO Media file produced by Google Inc.
Encoded date                             : UTC 2017-04-28 21:21:04
Tagged date                              : UTC 2017-04-28 21:21:04


Code:
http://rapidpaid.com/03cd9b8c58a60e2a/1._Do_Gaz_Zameen_Ke_Neeche_[1972].mp4
http://rapidpaid.com/b4ed1749906425b5/2._Andhera_[1975].mp4
http://rapidpaid.com/0ebad2887d892170/3._Aur_Kaun_[1979].mp4
http://rapidpaid.com/cea61bfd2fc85ee9/4._Guest_House_[1980].mp4
http://rapidpaid.com/d754c0366256f248/5._Saboot_[1980].mp4
http://rapidpaid.com/d8a3457fbd78c9e6/6._Dahshat_[1981].mp4
http://rapidpaid.com/6bfd2abd57e676ca/7._Sannata_[1981].mp4
http://rapidpaid.com/2b7621acace54937/8._Hotel_[1981].mp4
http://rapidpaid.com/de88a7dc6d8a3c79/9._Ghungroo_Ki_Awaaz_[1981].mp4
http://rapidpaid.com/cadcec1ee91cfa13/10._Purana_Mandir_[1984]__E-Sub.mp4
http://rapidpaid.com/9396259913a2866e/10._Purana_Mandir_[1984]__E-Sub.srt
http://rapidpaid.com/2932a8143b76ba89/11._Haveli_[1985].mp4
http://rapidpaid.com/bab61e73e347fa5c/12._3D_Saamri_[1985]__E-Sub.mp4
http://rapidpaid.com/47c70e6adc3e77ae/12._3D_Saamri_[1985]__E-Sub.srt
http://rapidpaid.com/74541cad8a413876/13._Tahkhana_[1986].mp4
http://rapidpaid.com/0b7190991beadfc0/14._Dak_Bangla_[1987].mp4
http://rapidpaid.com/edc2f44d947ed885/15._Veerana_(1988).mp4
http://rapidpaid.com/20cb03944f2c8bc8/16._Purani_Haveli_(1989).mp4
http://rapidpaid.com/cb8692bf46bb4119/17._Shaitani_Ilaka_[1990].mp4
http://rapidpaid.com/ca0ee225ae3bcfca/18._Bandh_Darwaza_[1990].mp4
http://rapidpaid.com/cdaa7dddcd807efc/19._Aakhri_Cheekh_[1991].mp4
http://rapidpaid.com/66f502c918a0ef57/20._Mahakaal_[1993]__E-Sub.mp4
http://rapidpaid.com/f348d048399f7dfc/20._Mahakaal_[1993]__E-Sub.srt
http://rapidpaid.com/a9a58601ec3c2267/21._Dhund_The_Fog_[2003].mp4
http://rapidpaid.com/775a9ddba6fe35e7/22._Aatma_[2006]_E-Sub.mp4
http://rapidpaid.com/940e6dbaa8294e79/22._Aatma_[2006]_E-Sub.srt
http://rapidpaid.com/cbb65101cf99e211/23._Ghutan_[2007].mp4
http://rapidpaid.com/9063811b1290dbaa/24._Neighbours_-_They_Are_Vampires_1_[2014].mp4
http://rapidpaid.com/9bedb0d2e2124029/24._Neighbours_-_They_Are_Vampires_2_[2014.mp4

Linux is offline   Reply With Quote
Reply

Thread Tools
Display Modes

Posting Rules
You may not post new threads
You may not post replies
You may not post attachments
You may not edit your posts

BB code is On
Smilies are On
[IMG] code is On
HTML code is Off

Forum Jump


All times are GMT. The time now is 03:25 AM.

https://hostingcounter.com
image

Powered by vBulletin® Version 3.8.8
Copyright ©2000 - 2018, vBulletin Solutions, Inc.